Oct 11 2017

TITULO ORIGINAL: Gamer (Citizen Game)
ANO: 2009
DURACION: 95 min.
PAIS: USA
DIRECTOR: Mark Neveldine, Brian Taylor
GUION: Mark Neveldine, Brian Taylor
REPARTO: Gerard Butler, Michael C. Hall, Alison Lohman, John Leguizamo, Amber Valletta, Aaron Yo, Logan Lerman, Keith David, Ludacris, Michael Weston, Kyra Sedgwick, Noel Gugliemi, Terry Crews, Johnny Whitworth, Zoe Bell, Milo Ventimiglia, Dylan Kenin, Efren Ramirez, Stephanie Mace, Sam Witwer
PRODUCTORA: Lions Gate Films / Lakeshore Entertainment / Albuquerque Studios
GENERO: Ciencia ficcion. Thriller. Accion | Videojuego
Sinopsis: En un futuro, en un juego denominado Slayers, uno de los participantes puede controlar a millones de seres humanos a traves del sistema multijugador. En el "Slayer" juego y espectaculo estan envueltos en un hibrido aterrador. Humanos controlados por humanos a gran escala, juegos en red donde personas representan a personas para siempre. La Tecnologia del control mental se ha extendido, y el corazon de ese controvertido e hiperviolento juego es su creador, el multimillonario Ken Castle (Michael C. Hall). Su ultima creacion es un juego de disparo en primera persona, que permite proyectar las fantasias mas salvajes de cada uno ante un publico global, utilizando prisioneros reales como avatares que luchan contra la muerte. Pero Kable (Gerard Butler), un poderoso guerrero controlado por el joven Simon, intentara liberarse a si mismo y al resto de jugadores del mundo…

http://www.imdb.com/title/tt1034032/

Trailer
https://youtu.be/Z6gFgaYRwTs

General
Format : Matroska
Format version : Version 3 / Version 2
File size : 9.68 GiB
Duration : 1h 35mn
Overall bit rate : 14.6 Mbps
Encoded date : UTC 2013-05-11 13:40:45
Writing application : mkvmerge v5.7.0 (The Whirlwind) built on Jul 8 2012 20:08:51
Writing library : libebml v1.2.3 + libmatroska v1.3.0
Video
ID : 1
Format : AVC
Format/Info : Advanced Video Codec
Format profile : High@L4.1
MultiView_Count : 2
MultiView_Layout : Side by Side (left eye first)
Format settings, CABAC : Yes
Format settings, ReFrames : 4 frames
Codec ID : V_MPEG4/ISO/AVC
Duration : 1h 35mn
Bit rate : 11.7 Mbps
Width : 1 920 pixels
Height : 1 080 pixels
Display aspect ratio : 16:9
Frame rate mode : Constant
Frame rate : 23.976 fps
Color space : YUV
Chroma subsampling : 4:2:0
Bit depth : 8 bits
Scan type : Progressive
Bits/(Pixel*Frame) : 0.235
Stream size : 7.77 GiB (80%)
Writing library : x264 core 132 r2309 3b1f1f7
Language : English
Default : Yes
Forced : No
Audio #1
ID : 2
Format : AC-3
Format/Info : Audio Coding 3
Mode extension : CM (complete main)
Format settings, Endianness : Big
Codec ID : A_AC3
Duration : 1h 35mn
Bit rate mode : Constant
Bit rate : 448 Kbps
Channel(s) : 6 channels
Channel positions : Front: L C R, Side: L R, LFE
Sampling rate : 48.0 KHz
Bit depth : 16 bits
Compression mode : Lossy
Delay relative to video : 500ms
Stream size : 304 MiB (3%)
Title : AC3
Language : Spanish
Default : Yes
Forced : No
Audio #2
ID : 3
Format : AC-3
Format/Info : Audio Coding 3
Mode extension : CM (complete main)
Format settings, Endianness : Big
Codec ID : A_AC3
Duration : 1h 35mn
Bit rate mode : Constant
Bit rate : 640 Kbps
Channel(s) : 6 channels
Channel positions : Front: L C R, Side: L R, LFE
Sampling rate : 48.0 KHz
Bit depth : 16 bits
Compression mode : Lossy
Stream size : 435 MiB (4%)
Title : AC3
Language : English
Default : No
Forced : No
Audio #3
ID : 4
Format : DTS
Format/Info : Digital Theater Systems
Mode : 16
Format settings, Endianness : Big
Codec ID : A_DTS
Duration : 1h 35mn
Bit rate mode : Constant
Bit rate : 1 509 Kbps
Channel(s) : 6 channels
Channel positions : Front: L C R, Side: L R, LFE
Sampling rate : 48.0 KHz
Bit depth : 24 bits
Compression mode : Lossy
Stream size : 1.00 GiB (10%)
Title : DTS
Language : English
Default : No
Forced : No
Text
ID : 5
Format : UTF-8
Codec ID : S_TEXT/UTF8
Codec ID/Info : UTF-8 Plain Text
Language : Spanish
Default : No
Forced : No





Buy Premium Account To Get High Speed Download
http://lupaste.com/?v=25238



Mensaje Privado
0 valoraciones, 0 votos0 valoraciones, 0 votos (0 rating, 0 votes, rated)
You need to be a registered member to rate this post.
Cargando…
43 Visitas

FavoriteLoadingAñadir a Favoritos


leave a reply