Oct 11 2017

Titulo original: Hercules | Hercules: The Thracian Wars
Ano: 2014
Duracion: 95 min.
Pais: Estados Unidos
Director: Brett Ratner
Guion: Ryan Condal, Evan Spiliotopoulos (Novela grafica: Steve Moore, Admira Wijaya)
Musica: Fernando Velazquez
Fotografia: Dante Spinotti
Reparto: Dwayne "The Rock" Johnson, Rufus Sewell, Ingrid Bols� Berdal (AKA Ingrid Bolso Berdal), Aksel Hennie, Ian McShane, Joseph Fiennes, Peter Mullan, Reece Ritchie, Rebecca Ferguson, John Hurt, Irina Shayk, Joe Anderson
Productora: Paramount Pictures / Metro-Goldwyn-Mayer (MGM) / Film 44 / Nimar Studios
Genero: Aventuras. Accion
Sinopsis: Hercules, como todos los heroes griegos, es un semidios. Tras realizar los terribles doce trabajos que le fueron impuestos y tras perder a su familia, decide darle la espalda a los dioses y encontrar consuelo en la busqueda de aventuras. Gracias a sus andanzas, ha encontrado hombres afines que se han unido a el, pues comparten su amor por el combate y no temen la presencia constante de la muerte en sus vidas. El rey de Tracia pretende que estos hombres formen un ejercito invencible. Adaptacion de la novela grafica de 2008 "Hercules: The Thracian War".

http://www.imdb.com/title/tt1267297/

Trailer
https://youtu.be/nnvPeCTl_qw

General
Format : Matroska
Format version : Version 4 / Version 2
File size : 8.52 GiB
Duration : 1h 38mn
Overall bit rate : 12.4 Mbps
Encoded date : UTC 2014-10-29 00:58:51
Writing application : mkvmerge v7.1.0 (Good Love) 64bit built on Jul 27 2014 13:06:55
Writing library : libebml v1.3.0 + libmatroska v1.4.1
Video
ID : 1
Format : AVC
Format/Info : Advanced Video Codec
Format profile : High@L4.1
MultiView_Count : 2
MultiView_Layout : Side by Side (left eye first)
Format settings, CABAC : Yes
Format settings, ReFrames : 5 frames
Codec ID : V_MPEG4/ISO/AVC
Duration : 1h 38mn
Bit rate : 9 650 Kbps
Width : 1 920 pixels
Height : 800 pixels
Display aspect ratio : 2.40:1
Frame rate mode : Constant
Frame rate : 23.976 fps
Color space : YUV
Chroma subsampling : 4:2:0
Bit depth : 8 bits
Scan type : Progressive
Bits/(Pixel*Frame) : 0.262
Stream size : 6.44 GiB (76%)
Writing library : x264 core 142 r2479 dd79a61
Language : English
Default : Yes
Forced : No
Audio #1
ID : 2
Format : AC-3
Format/Info : Audio Coding 3
Mode extension : CM (complete main)
Format settings, Endianness : Big
Codec ID : A_AC3
Duration : 1h 38mn
Bit rate mode : Constant
Bit rate : 640 Kbps
Channel(s) : 6 channels
Channel positions : Front: L C R, Side: L R, LFE
Sampling rate : 48.0 KHz
Bit depth : 16 bits
Compression mode : Lossy
Stream size : 449 MiB (5%)
Title : AC3 5.1 [BluRay]
Language : Spanish
Default : Yes
Forced : No
Audio #2
ID : 3
Format : AC-3
Format/Info : Audio Coding 3
Mode extension : CM (complete main)
Format settings, Endianness : Big
Codec ID : A_AC3
Duration : 1h 38mn
Bit rate mode : Constant
Bit rate : 640 Kbps
Channel(s) : 6 channels
Channel positions : Front: L C R, Side: L R, LFE
Sampling rate : 48.0 KHz
Bit depth : 16 bits
Compression mode : Lossy
Stream size : 449 MiB (5%)
Title : AC3 5.1
Language : English
Default : No
Forced : No
Audio #3
ID : 4
Format : DTS
Format/Info : Digital Theater Systems
Mode : 16
Format settings, Endianness : Big
Codec ID : A_DTS
Duration : 1h 38mn
Bit rate mode : Constant
Bit rate : 1 509 Kbps
Channel(s) : 6 channels
Channel positions : Front: L C R, Side: L R, LFE
Sampling rate : 48.0 KHz
Bit depth : 24 bits
Compression mode : Lossy
Stream size : 1.03 GiB (12%)
Title : DTS 5.1
Language : English
Default : No
Forced : No
Text #1
ID : 5
Format : UTF-8
Codec ID : S_TEXT/UTF8
Codec ID/Info : UTF-8 Plain Text
Language : Spanish
Default : Yes
Forced : No
Text #2
ID : 6
Format : UTF-8
Codec ID : S_TEXT/UTF8
Codec ID/Info : UTF-8 Plain Text
Language : Spanish
Default : No
Forced : No




Buy Premium Account To Get High Speed Download
http://lupaste.com/?v=25289



Mensaje Privado
0 valoraciones, 0 votos0 valoraciones, 0 votos (0 rating, 0 votes, rated)
You need to be a registered member to rate this post.
Cargando…
27 Visitas

FavoriteLoadingAñadir a Favoritos


leave a reply