Oct 11 2017

TITULO ORIGINAL: I, Frankenstein
ANO: 2014
DURACION: 93 min.
PAIS: USA
DIRECTOR: Stuart Beattie
GUION: Kevin Grevioux (Novela grafica: Kevin Grevioux)
REPARTO: Aaron Eckhart, Bill Nighy, Yvonne Strahovski, Jai Courtney, Miranda Otto, Kevin Grevioux, Steve Mouzakis, Aden Young, Deniz Akdeniz, Virginie Le Brun
PRODUCTORA: Lionsgate / Hopscotch Features / Lakeshore Entertainment
GENERO: Fantastico. Terror. Accion | Monstruos. Comic

http://www.imdb.com/title/tt1418377/

Sinopsis: Adaptacion del comic de Dark Storm pero ambientada en un presente distopico en el que hay una guerra entre angeles y demonios, y en el que el Frankenstein es, por una vez, un heroe que se enfrenta con todo tipo de monstruos: Vampiros, Hombres Lobo y Fantasmas.
Trailer
https://www.youtube.com/watch?v=CY-oOVw-XQE

General
Format : Matroska
Format version : Version 3 / Version 2
File size : 8.65 GiB
Duration 1h 32mn
Overall bit rate : 13.4 Mbps
Encoded date UTC 2014-05-01 19:41:44
Writing application : mkvmerge v5.7.0 (‘The Whirlwind’) built on Jul 8 2012 20:08:51
Writing library: libebml v1.2.3 + libmatroska v1.3.0
Video
ID : 1
Format: AVC
Format/Info: Advanced Video Codec
Format profile: High@L4.1
MultiView_Count 2
MultiView_Layout : Side by Side (left eye first)
Format settings, CABAC Yes
Format settings, ReFrames 4 frames
Muxing mode Header stripping
Codec ID V_MPEG4/ISO/AVC
Duration : 1h 32mn
Bit rate : 10.5 Mbps
Width : 1 920 pixels
Height: 1 080 pixels
Display aspect ratio: 16:9
Frame rate mode: Constant
Frame rate: 23.976 fps
Color space: YUV
Chroma subsampling : 4:2:0
Bit depth : 8 bits
Scan type : Progressive
Bits/(Pixel*Frame) : 0.212
Stream size : 6.80 GiB (79%)
Language : English
Default : Yes
Forced : No
Audio #1
ID : 2
Format : AC-3
Format/Info : Audio Coding 3
Mode extension : CM (complete main)
Format settings, Endianness : Big
Muxing mode : Header stripping
Codec ID : A_AC3
Duration : 1h 32mn
Bit rate mode : Constant
Bit rate : 448 Kbps
Channel(s) : 6 channels
Channel positions : Front: L C R, Side: L R, LFE
Sampling rate : 48.0 KHz
Bit depth : 16 bits
Compression mode : Lossy
Stream size : 296 MiB (3%)
Title : AC3 5.1
Language : Spanish
Default : Yes
Forced : No
Audio #2
ID : 3
Format : AC-3
Format/Info : Audio Coding 3
Mode extension : CM (complete main)
Format settings, Endianness : Big
Muxing mode : Header stripping
Codec ID : A_AC3
Duration : 1h 32mn
Bit rate mode : Constant
Bit rate : 640 Kbps
Channel(s) : 6 channels
Channel positions : Front: L C R, Side: L R, LFE
Sampling rate : 48.0 KHz
Bit depth : 16 bits
Compression mode : Lossy
Stream size : 423 MiB (5%)
Title : AC3 5.1
Language : English
Default : No
Forced : No
Audio #3
ID : 4
Format : DTS
Format/Info : Digital Theater Systems
Mode : 16
Format settings, Endianness : Big
Muxing mode : Header stripping
Codec ID : A_DTS
Duration : 1h 32mn
Bit rate mode : Constant
Bit rate : 1 509 Kbps
Channel(s) : 6 channels
Channel positions : Front: L C R, Side: L R, LFE
Sampling rate : 48.0 KHz
Bit depth : 24 bits
Compression mode : Lossy
Stream size
Language : English
Default : No
Forced : No
Text
ID : 5
Format : VobSub
Muxing mode : zlib
Codec ID: S_VOBSUB
Codec ID/Info : The same subtitle format used on DVDs
Language : Spanish
Default : No
Forced : No




Buy Premium Account To Get High Speed Download
http://lupaste.com/?v=22285



Mensaje Privado
0 valoraciones, 0 votos0 valoraciones, 0 votos (0 rating, 0 votes, rated)
You need to be a registered member to rate this post.
Cargando…
25 Visitas

FavoriteLoadingAñadir a Favoritos


leave a reply