Oct 11 2017

TITULO ORIGINAL: Iron Man 3 (Ironman 3)
ANO: 2013
DURACION: 118 min.
PAIS: USA
DIRECTOR: Shane Black
GUION: Shane Black, Drew Pearce (Personajes: Stan Lee)
REPARTO: Robert Downey Jr., Ben Kingsley, Gwyneth Paltrow, Don Cheadle, Guy Pearce, Rebecca Hall, James Badge Dale, Stephanie Szostak, Ty Simpkins, Wang Xueqi, Jon Favreau, William Sadler, Miguel Ferrer, Bingbing Fan, Yvonne Zima, Dale Dickey, Ashley Hamilton, Stan Lee
PRODUCTORA: Marvel Studios / Walt Disney Pictures
GENERO: Fantastico. Ciencia ficcion. Accion | Superheroes. Comic. Marvel Comics. Secuela. 3-D. Robots. Terrorismo
Sinopsis: El descarado y brillante empresario Tony Stark/Iron Man se enfrentara a un enemigo cuyo poder no conoce limites. Cuando Stark comprende que su enemigo ha destruido su universo personal, se embarca en una angustiosa busqueda para encontrar a los responsables. Este viaje pondra a prueba su entereza una y otra vez. Acorralado, Stark tendra que sobrevivir por sus propios medios, confiando en su ingenio y su instinto para proteger a las personas que quiere.

http://www.imdb.com/title/tt1300854/

Trailer
https://youtu.be/QZexh06we98

General
Format : Matroska
Format version : Version 2
File size : 13.7 GiB
Duration : 2h 10mn
Overall bit rate : 15.1 Mbps
Encoded date : UTC 2013-08-25 01:24:17
Writing application : mkvmerge v5.7.0 (The Whirlwind) built on Jul 8 2012 20:08:51
Writing library : libebml v1.2.3 + libmatroska v1.3.0
Video
ID : 1
Format : AVC
Format/Info : Advanced Video Codec
Format profile : High@L4.1
Format settings, CABAC : Yes
Format settings, ReFrames : 3 frames
Format settings, GOP : M=4, N=24
Codec ID : V_MPEG4/ISO/AVC
Duration : 2h 10mn
Bit rate : 12.0 Mbps
Width : 1 920 pixels
Height : 800 pixels
Display aspect ratio : 2.40:1
Frame rate mode : Constant
Frame rate : 23.976 fps
Color space : YUV
Chroma subsampling : 4:2:0
Bit depth : 8 bits
Scan type : Progressive
Bits/(Pixel*Frame) : 0.326
Stream size : 10.9 GiB (80%)
Writing library : x264 core
Language : English
Default : Yes
Forced : No
Color primaries : BT.709
Transfer characteristics : BT.709
Matrix coefficients : BT.709
Audio #1
ID : 2
Format : AC-3
Format/Info : Audio Coding 3
Mode extension : CM (complete main)
Format settings, Endianness : Big
Codec ID : A_AC3
Duration : 2h 10mn
Bit rate mode : Constant
Bit rate : 640 Kbps
Channel(s) : 6 channels
Channel positions : Front: L C R, Side: L R, LFE
Sampling rate : 48.0 KHz
Bit depth : 16 bits
Compression mode : Lossy
Stream size : 598 MiB (4%)
Title : AC3 5.1
Language : Spanish
Default : Yes
Forced : No
Audio #2
ID : 3
Format : AC-3
Format/Info : Audio Coding 3
Mode extension : CM (complete main)
Format settings, Endianness : Big
Codec ID : A_AC3
Duration : 2h 10mn
Bit rate mode : Constant
Bit rate : 640 Kbps
Channel(s) : 6 channels
Channel positions : Front: L C R, Side: L R, LFE
Sampling rate : 48.0 KHz
Bit depth : 16 bits
Compression mode : Lossy
Stream size : 598 MiB (4%)
Title : AC3 5.1
Language : English
Default : No
Forced : No
Audio #3
ID : 4
Format : DTS
Format/Info : Digital Theater Systems
Mode : 16
Format settings, Endianness : Big
Codec ID : A_DTS
Duration : 2h 10mn
Bit rate mode : Constant
Bit rate : 1 509 Kbps
Channel(s) : 6 channels
Channel positions : Front: L C R, Side: L R, LFE
Sampling rate : 48.0 KHz
Bit depth : 24 bits
Compression mode : Lossy
Stream size : 1.38 GiB (10%)
Title :DTS 5.1
Language : English
Default : No
Forced : No
Text #1
ID : 5
Format : UTF-8
Codec ID : S_TEXT/UTF8
Codec ID/Info : UTF-8 Plain Text
Language : Spanish
Default : No
Forced : No
Text #2
ID : 6
Format : VobSub
Muxing mode : zlib
Codec ID : S_VOBSUB
Codec ID/Info : The same subtitle format used on DVDs
Title : 3D
Language : Spanish
Default : No
Forced : No





Buy Premium Account To Get High Speed Download
http://lupaste.com/?v=23110



Mensaje Privado
0 valoraciones, 0 votos0 valoraciones, 0 votos (0 rating, 0 votes, rated)
You need to be a registered member to rate this post.
Cargando…
9 Visitas

FavoriteLoadingAñadir a Favoritos


leave a reply