Oct 11 2017

TITULO ORIGINAL: Rise of the Guardians
ANO: 2012
DURACION: 97 min.
PAIS: USA
DIRECTOR: Peter Ramsey
GUION: David Lindsay-Abaire (Libro: William Joyce)
REPARTO: Animation
PRODUCTORA: DreamWorks Animation
GENERO: Animacion. Fantastico. Aventuras | Navidad. 3-D
Sinopsis: "El origen de los guardianes" cuenta la historia de un grupo de superheroes con extraordinarios poderes. Cuando un espiritu maligno llamado Sombra se propone inundar de miedo los corazones de los ninos de todo el mundo, los Guardianes se unen por primera vez para plantarle cara y defender al mundo de su temido enemigo.

http://www.imdb.com/title/tt1446192/

Trailer
https://www.youtube.com/watch?v=vke3ZU86oTY

General
Format : Matroska
Format version : Version 3 / Version 2
File size : 8.92 GiB
Duration : 1h 37mn
Overall bit rate : 13.1 Mbps
Encoded date : UTC 2013-03-01 02:23:08
Writing application : mkvmerge v5.7.0 (‘The Whirlwind’) built on Jul 8 2012 20:08:51
Writing library : libebml v1.2.3 + libmatroska v1.3.0
Video
ID : 1
Format : AVC
Format/Info : Advanced Video Codec
Format profile : High@L4.1
MultiView_Count : 2
MultiView_Layout : Side by Side (left eye first)
Format settings, CABAC : Yes
Format settings, ReFrames : 4 frames
Codec ID : V_MPEG4/ISO/AVC
Duration : 1h 37mn
Bit rate : 10.1 Mbps
Width : 1 920 pixels
Height : 1 080 pixels
Display aspect ratio : 16:9
Frame rate mode : Constant
Frame rate : 23.976 fps
Color space : YUV
Chroma subsampling : 4:2:0
Bit depth : 8 bits
Scan type : Progressive
Bits/(Pixel*Frame) : 0.203
Stream size : 6.85 GiB (77%)
Writing library : x264 core 129 r2245 bc13772
Language : English
Default : Yes
Forced : No
Audio #1
ID : 2
Format : AC-3
Format/Info : Audio Coding 3
Mode extension : CM (complete main)
Format settings, Endianness : Big
Codec ID : A_AC3
Duration : 1h 37mn
Bit rate mode : Constant
Bit rate : 640 Kbps
Channel(s) : 6 channels
Channel positions : Front: L C R, Side: L R, LFE
Sampling rate : 48.0 KHz
Bit depth : 16 bits
Compression mode : Lossy
Stream size : 445 MiB (5%)
Title : AC3 5.1
Language : Spanish
Default : Yes
Forced : No
Audio #2
ID : 3
Format : AC-3
Format/Info : Audio Coding 3
Mode extension : CM (complete main)
Format settings, Endianness : Big
Codec ID : A_AC3
Duration : 1h 37mn
Bit rate mode : Constant
Bit rate : 640 Kbps
Channel(s) : 6 channels
Channel positions : Front: L C R, Side: L R, LFE
Sampling rate : 48.0 KHz
Bit depth : 16 bits
Compression mode : Lossy
Stream size : 445 MiB (5%)
Title : AC3 5.1
Language : English
Default : No
Forced : No
Audio #3
ID : 4
Format : DTS
Format/Info : Digital Theater Systems
Mode : 16
Format settings, Endianness : Big
Codec ID : A_DTS
Duration : 1h 37mn
Bit rate mode : Constant
Bit rate : 1 510 Kbps
Channel(s) : 6 channels
Channel positions : Front: L C R, Side: L R, LFE
Sampling rate : 48.0 KHz
Bit depth : 24 bits
Compression mode : Lossy
Delay relative to video : 11ms
Stream size : 1.03 GiB (11%)
Title : DTS 5.1
Language : English
Default : No
Forced : No
Text #1
ID : 5
Format : UTF-8
Codec ID : S_TEXT/UTF8
Codec ID/Info : UTF-8 Plain Text
Language : Spanish
Default : No
Forced : No
Text #2
ID : 6
Format : UTF-8
Codec ID : S_TEXT/UTF8
Codec ID/Info : UTF-8 Plain Text
Language : English
Default : No
Forced : No




Buy Premium Account To Get High Speed Download
http://lupaste.com/?v=23263



Mensaje Privado
0 valoraciones, 0 votos0 valoraciones, 0 votos (0 rating, 0 votes, rated)
You need to be a registered member to rate this post.
Cargando…
13 Visitas

FavoriteLoadingAñadir a Favoritos


leave a reply