Oct 11 2017

Titulo original: Rogue One: A Star Wars Story
Ano: 2016
Duracion: 133 min.
Pais: Estados Unidos
Director: Gareth Edwards
Reparto: Felicity Jones, Diego Luna, Ben Mendelsohn, Donnie Yen, Riz Ahmed, Wen Jiang, Mads Mikkelsen, Alan Tudyk, Forest Whitaker, Valene Kane, Guy Henry, Alistair Petrie, Genevieve OReilly, Jimmy Smits, Daniel Mays, Jonathan Aris, Ben Daniels, Ian McElhinney, Spencer Wilding
Productora: The Walt Disney Company / Lucasfilm
Genero: Ciencia ficcion. Accion. Belico | Aventura espacial. Spin-off. Star Wars. 3-D
Sinopsis: El Imperio Galactico ha terminado de construir el arma mas poderosa de todas, la Estrella de la muerte, pero un grupo de rebeldes decide realizar una mision de muy alto riesgo: robar los planos de dicha estacion antes de que entre en operaciones, mientras se enfrentan tambien al poderoso Lord Sith conocido como Darth Vader, discipulo del despiadado Emperador Palpatine. Film ambientado entre los episodios III y IV de Star Wars.

http://www.imdb.com/title/tt3748528/?ref_=nv_sr_2

Trailer
https://youtu.be/o9MVWSLLw6g

General
Format : Matroska
Format version : Version 4 / Version 2
File size : 17.1 GiB
Duration : 2 h 13 min
Overall bit rate : 18.2 Mb/s
Movie name : Rogue One: A Star Wars Story (2016) 3D H-SBS 1080p
Encoded date : UTC 2017-04-05 16:16:25
Writing application : mkvmerge v9.9.0 (Pick Up) 64bit
Writing library : libebml v1.3.4 + libmatroska v1.4.5
Video
ID : 1
Format : AVC
Format/Info : Advanced Video Codec
Format profile : High@L4.1
Format settings, CABAC : Yes
Format settings, ReFrames : 2 frames
Codec ID : V_MPEG4/ISO/AVC
Duration : 2 h 13 min
Bit rate : 15.5 Mb/s
Width : 1 920 pixels
Height : 1 080 pixels
Display aspect ratio : 16:9
Frame rate mode : Constant
Frame rate : 23.976 (24000/1001) FPS
Color space : YUV
Chroma subsampling : 4:2:0
Bit depth : 8 bits
Scan type : Progressive
Bits/(Pixel*Frame) : 0.312
Stream size : 14.5 GiB (85%)
Title : Rogue One: A Star Wars Story (2016) 3D H-SBS 1080p
Language : English
Default : Yes
Forced : No
Audio #1
ID : 2
Format : AC-3
Format/Info : Audio Coding 3
Mode extension : CM (complete main)
Format settings, Endianness : Big
Codec ID : A_AC3
Duration : 2 h 13 min
Bit rate mode : Constant
Bit rate : 640 kb/s
Channel(s) : 6 channels
Channel positions : Front: L C R, Side: L R, LFE
Sampling rate : 48.0 kHz
Frame rate : 31.250 FPS (1536 spf)
Bit depth : 16 bits
Compression mode : Lossy
Delay relative to video : 250 ms
Stream size : 613 MiB (4%)
Title : AC3 5.1 Bluray
Language : Spanish
Default : Yes
Forced : No
Audio #2
ID : 3
Format : DTS
Format/Info : Digital Theater Systems
Mode : 16
Format settings, Endianness : Big
Codec ID : A_DTS
Duration : 2 h 13 min
Bit rate mode : Constant
Bit rate : 1 509 kb/s
Channel(s) : 6 channels
Channel positions : Front: L C R, Side: L R, LFE
Sampling rate : 48.0 kHz
Frame rate : 93.750 FPS (512 spf)
Bit depth : 24 bits
Compression mode : Lossy
Stream size : 1.41 GiB (8%)
Title : DTS
Language : English
Default : No
Forced : No
Audio #3
ID : 4
Format : AC-3
Format/Info : Audio Coding 3
Mode extension : CM (complete main)
Format settings, Endianness : Big
Codec ID : A_AC3
Duration : 2 h 13 min
Bit rate mode : Constant
Bit rate : 640 kb/s
Channel(s) : 6 channels
Channel positions : Front: L C R, Side: L R, LFE
Sampling rate : 48.0 kHz
Frame rate : 31.250 FPS (1536 spf)
Bit depth : 16 bits
Compression mode : Lossy
Stream size : 613 MiB (4%)
Title : AC3 5.1
Language : English
Default : No
Forced : No
Text #1
ID : 5
Format : UTF-8
Codec ID : S_TEXT/UTF8
Codec ID/Info : UTF-8 Plain Text
Duration : 1 h 26 min
Bit rate : 0 b/s
Count of elements : 19
Stream size : 551 Bytes (0%)
Title : Subt_Forz
Language : Spanish
Default : Yes
Forced : No
Text #2
ID : 6
Format : UTF-8
Codec ID : S_TEXT/UTF8
Codec ID/Info : UTF-8 Plain Text
Duration : 2 h 5 min
Bit rate : 47 b/s
Count of elements : 1498
Stream size : 44.0 KiB (0%)
Title : Subt_Complet
Language : Spanish
Default : No
Forced : No





Buy Premium Account To Get High Speed Download
http://lupaste.com/?v=22807



Mensaje Privado
0 valoraciones, 0 votos0 valoraciones, 0 votos (0 rating, 0 votes, rated)
You need to be a registered member to rate this post.
Cargando…
27 Visitas

FavoriteLoadingAñadir a Favoritos


leave a reply