Oct 11 2017

Titulo original: Sing
Ano: 2016
Duracion: 108 min.
Pais: Estados Unidos
Director: Garth Jennings
Reparto: Animation
Productora: Illumination Entertainment
Genero: Animacion. Musical. Comedia. Infantil | Animales. 3-D. Musica
Sinopsis: Buster Moon es un elegante koala que regenta un teatro que conocio tiempos mejores. Es un optimista nato, lo que esta muy bien si no fuera un poco caradura, pero ama a su teatro con pasion y es capaz de cualquier cosa para salvarlo. Sabe que el sueno de su vida esta a punto de desaparecer, y solo tiene una oportunidad para mantenerlo a flote: organizar un concurso de canto y conseguir que sea un gran exito. Entre los muchos candidatos apareceran una cerdita ama de casa y otro cerdo muy animoso, una puercoespin rockera, un gorila bondadoso, un raton presumido y una elefante muy timida.

http://www.imdb.com/title/tt3470600/?ref_=nv_sr_1

Trailer
https://youtu.be/nYWXO9Irf34

General
Format : Matroska
Format version : Version 4 / Version 2
File size : 12.5 GiB
Duration : 1 h 47 min
Overall bit rate : 16.7 Mb/s
Movie name : Sing (2016) 3D H-SBS 1080p
Encoded date : UTC 2017-03-16 03:21:13
Writing application : mkvmerge v9.9.0 (Pick Up) 64bit
Writing library : libebml v1.3.4 + libmatroska v1.4.5
Video
ID : 1
Format : AVC
Format/Info : Advanced Video Codec
Format profile : High@L4.1
Format settings, CABAC : Yes
Format settings, ReFrames : 2 frames
Codec ID : V_MPEG4/ISO/AVC
Duration : 1 h 47 min
Bit rate : 15.5 Mb/s
Width : 1 920 pixels
Height : 1 080 pixels
Display aspect ratio : 16:9
Frame rate mode : Constant
Frame rate : 23.976 (24000/1001) FPS
Color space : YUV
Chroma subsampling : 4:2:0
Bit depth : 8 bits
Scan type : Progressive
Bits/(Pixel*Frame) : 0.312
Stream size : 11.7 GiB (93%)
Title : Sing (2016) 3D H-SBS 1080p
Language : English
Default : Yes
Forced : No
Audio #1
ID : 2
Format : AC-3
Format/Info : Audio Coding 3
Mode extension : CM (complete main)
Format settings, Endianness : Big
Codec ID : A_AC3
Duration : 1 h 47 min
Bit rate mode : Constant
Bit rate : 448 kb/s
Channel(s) : 6 channels
Channel positions : Front: L C R, Side: L R, LFE
Sampling rate : 48.0 kHz
Frame rate : 31.250 FPS (1536 spf)
Bit depth : 16 bits
Compression mode : Lossy
Stream size : 346 MiB (3%)
Title : AC3 5.1 Bluray
Language : Spanish
Default : Yes
Forced : No
Audio #2
ID : 3
Format : AC-3
Format/Info : Audio Coding 3
Mode extension : CM (complete main)
Format settings, Endianness : Big
Codec ID : A_AC3
Duration : 1 h 47 min
Bit rate mode : Constant
Bit rate : 640 kb/s
Channel(s) : 6 channels
Channel positions : Front: L C R, Side: L R, LFE
Sampling rate : 48.0 kHz
Frame rate : 31.250 FPS (1536 spf)
Bit depth : 16 bits
Compression mode : Lossy
Stream size : 494 MiB (4%)
Title : AC3 5.1
Language : English
Default : No
Forced : No
Text #1
ID : 4
Format : UTF-8
Codec ID : S_TEXT/UTF8
Codec ID/Info : UTF-8 Plain Text
Duration : 1 h 38 min
Bit rate : 0 b/s
Count of elements : 28
Stream size : 667 Bytes (0%)
Title : Subtit_Forz
Language : Spanish
Default : Yes
Forced : No
Text #2
ID : 5
Format : UTF-8
Codec ID : S_TEXT/UTF8
Codec ID/Info : UTF-8 Plain Text
Duration : 1 h 39 min
Bit rate : 57 b/s
Count of elements : 1465
Stream size : 41.5 KiB (0%)
Title : Subti_Comple
Language : Spanish
Default : No
Forced : No





Buy Premium Account To Get High Speed Download
http://lupaste.com/?v=23266



Mensaje Privado
0 valoraciones, 0 votos0 valoraciones, 0 votos (0 rating, 0 votes, rated)
You need to be a registered member to rate this post.
Cargando…
50 Visitas

FavoriteLoadingAñadir a Favoritos


leave a reply