Oct 12 2017

Titulo original: The Angry Birds Movie
Ano: 2016
Duracion: 97 min.
Pais: Estados Unidos
Director: Clay Kaytis, Fergal Reilly
Reparto: Animation
Productora: Rovio Mobile / Sony Pictures Animation / Sony Pictures Imageworks (SPI)
Genero: Animacion. Comedia | Pajaros. 3-D. Videojuego
Sinopsis: Basada en la coleccion de videojuegos Angry Birds, la historia se desarrolla en una isla poblada por aves felices que no vuelan. En este paraiso, Red, un pajaro con muy mal genio, el veloz Chuck y el volatil Bomb nunca han terminado de encajar. Pero cuando llegan a la isla unos misteriosos cerdos verdes, seran estos tres marginados los que averiguen que traman los extranos visitantes.

http://www.imdb.com/title/tt1985949/?ref_=nv_sr_1

Trailer
https://youtu.be/e1ZjF27cTUc

General
Format : Matroska
Format version : Version 4 / Version 2
File size : 12.4 GiB
Duration : 1h 37mn
Overall bit rate : 18.2 Mbps
Movie name : The Angry Birds Movie (2016) 3D H-SBS 1080p
Encoded date : UTC 2016-08-01 04:52:28
Writing application : mkvmerge v8.3.0 (Over the Horizon) 64bit
Writing library : libebml v1.3.1 + libmatroska v1.4.2
Video
ID : 1
Format : AVC
Format/Info : Advanced Video Codec
Format profile : High@L4.1
Format settings, CABAC : Yes
Format settings, ReFrames : 2 frames
Codec ID : V_MPEG4/ISO/AVC
Duration : 1h 37mn
Bit rate : 15.5 Mbps
Width : 1 920 pixels
Height : 1 080 pixels
Display aspect ratio : 16:9
Frame rate mode : Constant
Frame rate : 23.976 fps
Color space : YUV
Chroma subsampling : 4:2:0
Bit depth : 8 bits
Scan type : Progressive
Bits/(Pixel*Frame) : 0.312
Stream size : 10.2 GiB (83%)
Title : The Angry Birds Movie (2016) 3D H-SBS 1080p
Language : English
Default : Yes
Forced : No
Audio #1
ID : 2
Format : AC-3
Format/Info : Audio Coding 3
Mode extension : CM (complete main)
Format settings, Endianness : Big
Codec ID : A_AC3
Duration : 1h 37mn
Bit rate mode : Constant
Bit rate : 640 Kbps
Channel(s) : 6 channels
Channel positions : Front: L C R, Side: L R, LFE
Sampling rate : 48.0 KHz
Bit depth : 16 bits
Compression mode : Lossy
Stream size : 445 MiB (4%)
Title : AC3 5.1 Bluray
Language : Spanish
Default : Yes
Forced : No
Audio #2
ID : 3
Format : DTS
Format/Info : Digital Theater Systems
Mode : 16
Format settings, Endianness : Big
Codec ID : A_DTS
Duration : 1h 37mn
Bit rate mode : Constant
Bit rate : 1 509 Kbps
Channel(s) : 6 channels
Channel positions : Front: L C R, Side: L R, LFE
Sampling rate : 48.0 KHz
Bit depth : 16 bits
Compression mode : Lossy
Stream size : 1.02 GiB (8%)
Title : DTS
Language : English
Default : No
Forced : No
Audio #3
ID : 4
Format : AC-3
Format/Info : Audio Coding 3
Mode extension : CM (complete main)
Format settings, Endianness : Big
Codec ID : A_AC3
Duration : 1h 37mn
Bit rate mode : Constant
Bit rate : 640 Kbps
Channel(s) : 6 channels
Channel positions : Front: L C R, Side: L R, LFE
Sampling rate : 48.0 KHz
Bit depth : 16 bits
Compression mode : Lossy
Stream size : 445 MiB (4%)
Title : AC3 5.1
Language : English
Default : No
Forced : No
Text #1
ID : 5
Format : UTF-8
Codec ID : S_TEXT/UTF8
Codec ID/Info : UTF-8 Plain Text
Title : Subtit_Forz
Language : Spanish
Default : Yes
Forced : No
Text #2
ID : 6
Format : UTF-8
Codec ID : S_TEXT/UTF8
Codec ID/Info : UTF-8 Plain Text
Title : Subtit_Complet
Language : Spanish
Default : No
Forced : No





Buy Premium Account To Get High Speed Download
http://lupaste.com/?v=23439



Mensaje Privado
0 valoraciones, 0 votos0 valoraciones, 0 votos (0 rating, 0 votes, rated)
You need to be a registered member to rate this post.
Cargando…
27 Visitas

FavoriteLoadingAñadir a Favoritos


leave a reply