Sep 1 2017

Titulo original: The SpongeBob Movie: Sponge Out of Water
Ano: 2015
Duracion: 93 min.
Pais: Estados Unidos
Director: Paul Tibbitt
Guion: Jonathan Aibel, Glenn Berger (Personajes: Stephen Hillenburg)
Musica: John Debney
Fotografia: Phil Meheux
Reparto: Animation, Antonio Banderas
Productora: Disruption Entertainment / Nickelodeon Movies / Paramount Animation / United Plankton Pictures
Genero: Animacion. Comedia | Secuela. Cine familiar. 3-D
Sinopsis: Bob Esponja emprende un viaje para recuperar una receta que ha robado un pirata; para ello lo trae a nuestra dimension en 3D.

http://www.imdb.com/title/tt2279373/

Trailer
https://youtu.be/jt7FRXRC2n0

General
Format : Matroska
Format version : Version 4 / Version 2
File size : 5.20 GiB
Duration : 1h 32mn
Overall bit rate : 8 041 Kbps
Encoded date : UTC 2015-05-22 00:31:38
Writing application : mkvmerge v7.1.0 (Good Love) 64bit built on Jul 27 2014 13:06:55
Writing library : libebml v1.3.0 + libmatroska v1.4.1
Video
ID : 1
Format : AVC
Format/Info : Advanced Video Codec
Format profile : High@L4.1
Format settings, CABAC : Yes
Format settings, ReFrames : 4 frames
Codec ID : V_MPEG4/ISO/AVC
Duration : 1h 32mn
Bit rate : 5 245 Kbps
Width : 1 920 pixels
Height : 1 080 pixels
Display aspect ratio : 16:9
Frame rate mode : Constant
Frame rate : 23.976 fps
Color space : YUV
Chroma subsampling : 4:2:0
Bit depth : 8 bits
Scan type : Progressive
Bits/(Pixel*Frame) : 0.105
Stream size : 3.29 GiB (63%)
Writing library : x264 core 144 r2525 40bb568
Language : English
Default : Yes
Forced : No
Audio #1
ID : 2
Format : AC-3
Format/Info : Audio Coding 3
Mode extension : CM (complete main)
Format settings, Endianness : Big
Codec ID : A_AC3
Duration : 1h 32mn
Bit rate mode : Constant
Bit rate : 640 Kbps
Channel(s) : 6 channels
Channel positions : Front: L C R, Side: L R, LFE
Sampling rate : 48.0 KHz
Bit depth : 16 bits
Compression mode : Lossy
Stream size : 424 MiB (8%)
Title : AC3 5.1
Language : Spanish
Default : Yes
Forced : No
Audio #2
ID : 3
Format : AC-3
Format/Info : Audio Coding 3
Mode extension : CM (complete main)
Format settings, Endianness : Big
Codec ID : A_AC3
Duration : 1h 32mn
Bit rate mode : Constant
Bit rate : 640 Kbps
Channel(s) : 6 channels
Channel positions : Front: L C R, Side: L R, LFE
Sampling rate : 48.0 KHz
Bit depth : 16 bits
Compression mode : Lossy
Stream size : 424 MiB (8%)
Title : AC3 5.1
Language : English
Default : No
Forced : No
Audio #3
ID : 4
Format : DTS
Format/Info : Digital Theater Systems
Mode : 16
Format settings, Endianness : Big
Codec ID : A_DTS
Duration : 1h 32mn
Bit rate mode : Constant
Bit rate : 1 509 Kbps
Channel(s) : 6 channels
Channel positions : Front: L C R, Side: L R, LFE
Sampling rate : 48.0 KHz
Bit depth : 24 bits
Compression mode : Lossy
Stream size : 999 MiB (19%)
Title : DTS 5.1
Language : English
Default : No
Forced : No
Text
ID : 5
Format : VobSub
Muxing mode : zlib
Codec ID : S_VOBSUB
Codec ID/Info : The same subtitle format used on DVDs
Language : Latin
Default : No
Forced : No




Katfile, Uploaded, Rapidgator

**Todos los Enlaces Estan en Lupaste:
http://lupaste.com/?v=23523



Mensaje Privado
0 valoraciones, 0 votos0 valoraciones, 0 votos (0 rating, 0 votes, rated)
You need to be a registered member to rate this post.
Cargando…
104 Visitas

FavoriteLoadingAñadir a Favoritos


leave a reply