Sep 4 2017

Titulo original: X-Men: Apocalypse
Ano: 2016
Duracion: 143 min.
Pais: Estados Unidos
Director: Bryan Singer
Reparto: James McAvoy, Michael Fassbender, Jennifer Lawrence, Nicholas Hoult, Oscar Isaac, Rose Byrne, Evan Peters, Sophie Turner, Tye Sheridan, Josh Helman, Kodi Smit-McPhee, Lucas Till, Alexandra Shipp, Olivia Munn, Lana Condor, Hugh Jackman, Stan Lee
Productora: Twentieth Century Fox Film Corporation / Dune Entertainment / Marvel Entertainment
Genero: Ciencia ficcion. Accion | Anos 80. Secuela. Superheroes. Comic. Marvel Comics
Sinopsis: Desde el inicio de los tiempos Apocalipsis, el mutante mas poderoso que ha existido nunca, era adorado como un dios mientras acumulaba los poderes del resto de mutantes convirtiendose en un ser inmortal. Tras miles de anos dormido, despierta en un mundo que no le gusta y por ello recluta un equipo, encabezado por Magneto, para acabar con toda la humanidad y crear un nuevo orden mundial. Pero el Profesor X, con la ayuda de Mistica, se unira a un grupo de jovenes mutantes para tratar de detener al mayor enemigo contra el que se hayan enfrentado jamas.

http://www.imdb.com/title/tt3385516/

Trailer
https://youtu.be/YSNOcf52m8Y

General
Format : Matroska
Format version : Version 4 / Version 2
File size : 18.2 GiB
Duration : 2h 23mn
Overall bit rate : 18.1 Mbps
Movie name : X-Men: Apocalypse (2016) 3D H-SBS 1080p
Encoded date : UTC 2016-09-29 02:25:35
Writing application : mkvmerge v7.1.0 (Good Love) 64bit built on Jul 27 2014 13:06:55
Writing library : libebml v1.3.0 + libmatroska v1.4.1
Video
Format : AVC
Format/Info : Advanced Video Codec
Format profile : High@L4.1
Format settings, CABAC : Yes
Format settings, ReFrames : 2 frames
Codec ID : V_MPEG4/ISO/AVC
Duration : 2h 23mn
Bit rate : 15.5 Mbps
Width : 1 920 pixels
Height : 1 080 pixels
Display aspect ratio : 16:9
Frame rate mode : Constant
Frame rate : 23.976 fps
Color space : YUV
Chroma subsampling : 4:2:0
Bit depth : 8 bits
Scan type : Progressive
Bits/(Pixel*Frame) : 0.312
Stream size : 15.2 GiB (84%)
Title : X-Men: Apocalypse (2016) 3D H-SBS 1080p
Language : English
Default : Yes
Forced : No
Audio #1
ID : 2
Format : AC-3
Format/Info : Audio Coding 3
Mode extension : CM (complete main)
Format settings, Endianness : Big
Codec ID : A_AC3
Duration : 2h 23mn
Bit rate mode : Constant
Bit rate : 448 Kbps
Channel(s) : 6 channels
Channel positions : Front: L C R, Side: L R, LFE
Sampling rate : 48.0 KHz
Bit depth : 16 bits
Compression mode : Lossy
Stream size : 461 MiB (2%)
Title : AC3 5.1 Bluray
Language : Spanish
Default : Yes
Forced : No
Audio #2
ID : 3
Format : DTS
Format/Info : Digital Theater Systems
Format profile : ES
Mode : 16
Format settings, Endianness : Big
Codec ID : A_DTS
Duration : 2h 23mn
Bit rate mode : Constant
Bit rate : 1 509 Kbps
Channel(s) : 6 channels
Channel positions : Front: L C R, Side: L R, LFE
Sampling rate : 48.0 KHz
Bit depth : 24 bits
Compression mode : Lossy
Stream size : 1.52 GiB (8%)
Title : DTS
Language : English
Default : No
Forced : No
Audio #3
ID : 4
Format : AC-3
Format/Info : Audio Coding 3
Mode extension : CM (complete main)
Format settings, Endianness : Big
Codec ID : A_AC3
Duration : 2h 23mn
Bit rate mode : Constant
Bit rate : 640 Kbps
Channel(s) : 6 channels
Channel positions : Front: L C R, Side: L R, LFE
Sampling rate : 48.0 KHz
Bit depth : 16 bits
Compression mode : Lossy
Stream size : 659 MiB (4%)
Title : AC3 5.1
Language : English
Default : No
Forced : No
Text #1
ID : 5
Format : UTF-8
Codec ID : S_TEXT/UTF8
Codec ID/Info : UTF-8 Plain Text
Title : Subt_Forz
Language : Spanish
Default : Yes
Forced : No
Text #2
ID : 6
Format : UTF-8
Codec ID : S_TEXT/UTF8
Codec ID/Info : UTF-8 Plain Text
Title : Subt_Complet
Language : Spanish
Default : No
Forced : No



http://lupaste.com/?v=23609



Mensaje Privado
0 valoraciones, 0 votos0 valoraciones, 0 votos (0 rating, 0 votes, rated)
You need to be a registered member to rate this post.
Cargando…
61 Visitas

FavoriteLoadingAñadir a Favoritos


leave a reply